» » Tim Feehan - Sneak Preview / Carmalita

Tim Feehan - Sneak Preview / Carmalita album download

FLAC MP3 WMA
Tim Feehan - Sneak Preview / Carmalita album download
  • Performer:
  • Title:
    Sneak Preview / Carmalita
  • Genre:
  • Date of release:
  • Size FLAC version
    1526 megabytes
  • Size MP3 version
    1570 megabytes
  • Size WMA version
    1382 megabytes
  • Rating:
    4.3
  • Votes:
    742
  • Formats:
    XM DMF APE VQF MP2 RA WAV

Band Name Tim Feehan. 1. Backseat-Backbeat. 2. Go Ahead and Break My Heart. 5. Don't Be Shy. 6. Friday Night. 7. Give Us Your Name. 8. Up-Turned-Down and Around.

Band Name Tim Feehan. Album Name Carmalita. Albums in Hard FM. Not So Silent Night.

Album starts at BPM, ends at BPM (+0), with tempos within the -BPM range. Try refreshing the page if dots are missing). Recent albums by Tim Feehan. Tracks I Forgot About.

17, Dynamic Range Meter . 1 log date: 2019-01-16 21:48:35. dB -. 1 dB 3:37 05-Don't Be Shy DR11 -. 5 dB -1. 7 dB 3:48 06-Friday Night DR9 -. 6 dB 4:30 07-Give Us Your Name DR8 -. 5 dB -. 4 dB 4:20 08-Up, Turned, Down & Around DR8 -. 6 dB 3

Слушать бесплатное интернет-радио, спорт, музыку, новости, разговорное и подкасты. События в прямом эфире, трансляции игр NFL, MLB, NBA, NHL, университетских команд и матчи Премьер-лиги. Спорт, музыка, новости и подкасты. Слушайте аудиоконтент, который для вас наиболее важен.

Tracklist

1 Backseat, Backbeat 3:32
2 Go Ahead & Break My Heart 2:53
3 Sneak Preview 3:11
4 Nightspin 3:32
5 Don't Be Shy 3:37
6 Friday Night 3:48
7 Give Us Your Name 4:30
8 Up, Turned, Down & Around 4:20
9 Try Harder 3:21
10 Carmalita 3:47
11 January 4:33
12 Wrong Number 3:21
13 Alone 4:45
14 Bad Sister 4:25
15 Over & Over 3:53
16 Take Her By Surprise 4:36
17 Wait One More Day 4:15
18 Never Say Die 3:54
19 Sadie J 4:16

Credits

  • Reissue Producer, Remastered By – Shawn Nagy

Notes

Limited edition pressing remastered from the original Mustard Records master tapes

Villo
foobar2000 1.3.17 / Dynamic Range Meter 1.1.1log date: 2019-01-16 21:48:35--------------------------------------------------------------------------------Analyzed: Tim Feehan / Sneak Preview / Carmalita [US 2018 CD]--------------------------------------------------------------------------------DR Peak RMS Duration Track--------------------------------------------------------------------------------DR9 -0.45 dB -10.38 dB 3:32 01-Backseat - BackbeatDR8 -0.45 dB -10.12 dB 2:53 02-Go Ahead & Break My HeartDR9 -0.45 dB -10.47 dB 3:11 03-Sneak PreviewDR10 -0.45 dB -11.62 dB 3:32 04-NightspinDR8 -0.45 dB -9.71 dB 3:37 05-Don't Be ShyDR11 -0.45 dB -12.37 dB 3:48 06-Friday NightDR9 -0.45 dB -10.66 dB 4:30 07-Give Us Your NameDR8 -0.45 dB -9.64 dB 4:20 08-Up, Turned, Down & AroundDR8 -0.45 dB -9.16 dB 3:21 09-Try HarderDR7 -0.45 dB -9.62 dB 3:47 10-CarmalitaDR8 -0.45 dB -9.24 dB 4:33 11-JanuaryDR8 -0.45 dB -8.97 dB 3:21 12-Wrong NumberDR7 -0.45 dB -9.49 dB 4:45 13-AloneDR8 -0.45 dB -9.45 dB 4:25 14-Bad SisterDR8 -0.45 dB -10.44 dB 3:53 15-Over & OverDR8 -0.45 dB -9.93 dB 4:36 16-Take Her By SurpriseDR8 -0.45 dB -10.10 dB 4:15 17-Wait One More DayDR8 -0.10 dB -10.06 dB 3:54 18-Never Say DieDR8 -0.45 dB -9.13 dB 4:16 19-Sadie J--------------------------------------------------------------------------------Number of tracks: 19Official DR value: DR8Samplerate: 44100 HzChannels: 2Bits per sample: 16Bitrate: 1046 kbpsCodec: ALAC================================================================================